Magnificat in E-Flat Major, BWV 243a: Virga Jesse floruit: 3:21 : Magnificat in E Flat, Missa in F: Johann Sebastian Bach; Monteverdi Choir, English Baroque Soloists, Sir John Eliot Gardiner: 2017-10-13; Soli Deo Gloria: SDG 728: Relationships. Euph. Alleluja. Alleluja. " Virga Jesse floruit Emanuel noster apparuit Induit carnem hominis Fit puer delectabilis. used in a Christmas cantata by Johann Kuhnau; included in Magnificat in E-flat major, BWV 243a by Johann Sebastian Bach; In addition, the Tree of Jesse is also referenced in the medieval series of lyrical poems known as the Cantigas de Santa Maria 0000064278 00000 n anon. 0000003701 00000 n H���M�[email protected]��+J>�h*�""����H�˴���xxX3�V���oe}�+h�#Y�:2�dUEe��N����!�1I���O��Ӭ�l����鷏��=�?�ǻ���܄����Nw��~�}�p�����C��C�]���ٿ~�bN/��'�w��߿�ힿ|||ٽ�����������y�ɣ��5�9ǣ�Nc9iW���~���ݼ�������C������R+O����u[��Ӥ��ͬ|��?�{>y���^�?��w?v?��w� �;�|�C��?F������G ! ... Scarlatti, CPE Bach, Jc Bach. Virga Jesse floruit Soli (SATB), Coro (SATB) 2 Clarini, Timpani, 2 Violini, Viola e Basso continuo Erstausgabe/First edition herausgegeben von/edited by Arne Thielemann. Virga Jesse floruit from Philippe Herreweghe's J.S. 10 Alleluja. Rounded binary form in their preclassical keyboard works. Stream ad-free or purchase CD's and MP3s now on Amazon.com. Virga Jesse floruit: Virgo Deum et hominem genuit: pacem Deus reddidit, in se reconcilians ima summis. 0000003740 00000 n Marano Lagunare (organ) Release Date: 16th Jan 2012; Catalogue No: FUG032; Label: Fugatto; CD $11.75. 1. Byrd also apparently intended the piece as the Alleluia for the Votive Mass of the Blessed Virgin during Paschal Time, but here the order of the verses Ave Maria and Virga Jesse is reversed – a reversal which cannot be done with the piece as written. Werbefrei … It sets the gradual Virga Jesse floruit for unaccompanied mixed choir. Virga jesse song on Gaana.com and listen Bach, J.S. In stock. serpre cresc. 0000034230 00000 n 1. Virga Jesse Floruit Vol. Manuel Tomadin (organ) Release Date: 17th Dec 2012; Catalogue No: FUG040; Label: Fugatto; CD $12.00. 33 0 obj << /Linearized 1 /O 35 /H [ 1180 262 ] /L 680481 /E 141228 /N 10 /T 679703 >> endobj xref 33 37 0000000016 00000 n 0000003496 00000 n 2. Genre: Al. 0000054717 00000 n Virga Jesse Floruit for the Hokkaido Euphonium/ Tuba Camp arranged by Mark Nelson Euph. Bach komponierte das Es-Dur Magnificat BWV 243a (älter als die bekanntere und überarbeitete D-Dur Version BWV243, und versehen mit einer leicht geänderten Instrumentalisierung) für seinen ersten Weihnachtstag in Leipzig. Stream songs including "Magnificat in D Major, BWV 243a: I. Magnificat anima mea", "Magnificat in D Major, BWV 243a: II. The brief gradual text translates something as follows: “The rod of Jesse flourished; a virgin produced both God and man: and God restored peace, reconciling both lowest and highest within Himself. The early E-flat version of J. S. Bach's *Magnificat BWV 243 has a fragmentary duet for soprano and bass, "Virga Jesse floruit, Emanuel noster apparuit", unrelated but for the incipit. Virga jesse MP3 Song by Emma Kirkby from the Latin movie Bach, J.S. �{G�AhZ��&V�޳�� |��s�e���&���H3�[email protected]� �(� endstream endobj 69 0 obj 150 endobj 35 0 obj << /Type /Page /Parent 30 0 R /Resources 36 0 R /Contents [ 45 0 R 47 0 R 49 0 R 51 0 R 55 0 R 57 0 R 59 0 R 61 0 R ] /MediaBox [ 0 0 612 792 ] /CropBox [ 0 0 612 792 ] /Rotate 0 >> endobj 36 0 obj << /ProcSet [ /PDF /Text ] /Font << /TT2 41 0 R /TT4 37 0 R /TT6 38 0 R /TT8 52 0 R >> /ExtGState << /GS1 64 0 R >> /ColorSpace << /Cs6 43 0 R >> >> endobj 37 0 obj << /Type /Font /Subtype /TrueType /FirstChar 32 /LastChar 117 /Widths [ 250 333 0 0 0 0 0 0 333 333 0 0 250 333 250 0 500 500 500 500 500 500 500 500 500 500 0 0 0 0 0 0 0 722 667 667 0 611 0 0 0 333 389 0 0 0 0 0 0 0 0 556 0 0 722 0 0 0 0 0 0 0 0 0 0 444 500 444 500 444 333 500 500 278 278 0 278 778 500 500 500 0 333 389 278 500 ] /Encoding /WinAnsiEncoding /BaseFont /FCOJBM+TimesNewRoman /FontDescriptor 39 0 R >> endobj 38 0 obj << /Type /Font /Subtype /TrueType /FirstChar 49 /LastChar 122 /Widths [ 274 278 0 0 0 0 0 274 0 0 0 0 0 0 0 0 0 0 0 0 0 0 0 0 0 0 0 0 0 0 0 0 0 0 0 0 0 0 0 0 0 0 0 0 0 0 0 0 520 564 0 180 144 0 214 0 0 0 238 0 0 229 214 0 0 0 210 208 0 0 0 0 0 93 ] /Encoding /WinAnsiEncoding /BaseFont /FCOJMI+NWCV15 /FontDescriptor 42 0 R >> endobj 39 0 obj << /Type /FontDescriptor /Ascent 891 /CapHeight 0 /Descent -216 /Flags 34 /FontBBox [ -568 -307 2028 1007 ] /FontName /FCOJBM+TimesNewRoman /ItalicAngle 0 /StemV 94 /FontFile2 62 0 R >> endobj 40 0 obj << /Type /FontDescriptor /Ascent 891 /CapHeight 0 /Descent -216 /Flags 34 /FontBBox [ -558 -307 2034 1026 ] /FontName /FCOILG+TimesNewRoman,Bold /ItalicAngle 0 /StemV 160 /FontFile2 63 0 R >> endobj 41 0 obj << /Type /Font /Subtype /TrueType /FirstChar 32 /LastChar 117 /Widths [ 250 0 555 0 0 0 0 0 333 333 0 0 0 333 250 0 500 500 500 500 500 500 500 500 500 500 0 0 0 0 0 0 0 0 667 0 722 0 0 0 0 389 500 0 0 944 0 0 0 0 0 0 0 0 722 1000 0 0 0 0 0 0 0 0 0 500 0 444 0 444 333 500 0 278 0 0 278 0 556 500 0 0 444 389 333 556 ] /Encoding /WinAnsiEncoding /BaseFont /FCOILG+TimesNewRoman,Bold /FontDescriptor 40 0 R >> endobj 42 0 obj << /Type /FontDescriptor /Ascent 1060 /CapHeight 0 /Descent -330 /Flags 32 /FontBBox [ -66 -321 870 1060 ] /FontName /FCOJMI+NWCV15 /ItalicAngle 0 /StemV 0 /FontFile2 67 0 R >> endobj 43 0 obj [ /ICCBased 65 0 R ] endobj 44 0 obj 9968 endobj 45 0 obj << /Filter /FlateDecode /Length 44 0 R >> stream ;4������%�mM��X�9ؘ��Y��E�"X/��Xs��r�yc���c�-�1��}����~�p�ۊc =�`&���y��m��`c�v ;*;,��Y�c�ƛ�[��8Hn[r�F-x�x-�b%��r� �1����ם]� �q�t�.���ٓ�4���g���� ,z��1faC ��F���Œ�`c��(0�@,;dL�15��7�m6��9fF=�*���y"�D�I4w� �#�)W�&̓�Y+ޤx����E�"��c�5�@Jv�d��M�3��eZ(�ړ�L���˴�)� ��:::: � Molemmat ovat kuorolle ja orkesterille sävellettyjä teoksia. External websites: Original text and translations Alleluia. composer. 0000023851 00000 n author of text. �*���I�dt2:��N�N�;���� ˬ�i��!�����M� F�D�L�L�L�L�B�B'�eU�AR���I�t2:�s��|0O>�Ҫz+?,���hȠ!�ra���N�����N�N�N�N��ѩ�I�$t: ��NJ'�2��d�I�a�F�aF�a�F�a�F�a�F�a��yF_�1�o��_1'��� C(a:�����Wq. Latin text. Preview alleluia ave maria virga jesse floruit arranged for string quintet 2 violins 2 violas 1 cello is available in 6 pages and compose for intermediate difficulty. … Alleluia Virga Jesse floruit virgo deum et hominem genuit pacem deus reddidit in se reconcilians ima summis Manuscript Reading Full Text (MS spelling): Alleluia Virga iesse floruit virgo deum et hominem genuit pacem deus reddidit in se reconcilians yma summis Folio: 348. Magnificat in E-Flat Major, BWV 243a: Virga Jesse floruit Magnificat in E-Flat Major, BWV 243a: Suscepit Israel Magnificat in E-Flat Major, BWV 243a: Sicut locutus est *#608756 - 0.24MB, 12 pp. The brief gradual text translates something as follows: "The rod of Jesse flourished; a virgin produced both God and man: and God restored peace, reconciling both lowest and highest within Himself. Usually despatched within 1 working day. 0000001421 00000 n Fast and reliable delivery worldwide. Listen to Christmas Magnificats by Various Artists on Apple Music. Magnificat in D (BWV 243) - D Virga Jesse floruit midi soprano.mid Musical Notes Distribution. Unser Mund sei voll Lachens (May our mouth be full of laughter), BWV 110, is a church cantata by Johann Sebastian Bach.He composed the Christmas cantata in Leipzig for Christmas Day and first performed it on 25 December 1725.. Bach composed the cantata in his third year as Thomaskantor in Leipzig.He used a text by Georg Christian Lehms, which was published already in 1711. of the Christmas story. The early E-flat version of J. S. Bach's *Magnificat BWV 243 has a fragmentary duet for soprano and bass, "Virga Jesse floruit, Emanuel noster apparuit", unrelated but for the incipit. Title Graduale Name Translations エサイの枝は芽を出し: Authorities WorldCat; Wikipedia; VIAF: 174271665; LCCN: n94017900; GND: 300030142; BNF: 13920754d: Composer Bruckner, Anton: Opus/Catalogue Number Op./Cat. Stream ad-free or purchase CD's and MP3s now on Amazon.com. Although written in the stille antico, this rather dramatic motet is nearly symphonic. Anton Bruckner - Virga Jesse (Marienmotette) (WAB 52)Chor>SATB 1723-07-02, rev. Add CD to basket . Genres (none) Other tags (none) See all tags. 2 Office/Mass: MI. Magnificat In D (BWV 243) - D. "Virga Jesse floruit" Johann Sebastian Bach (1685-1750) a dddd12 8 Soprano I nnnnnnnnnnnn b dddd128 Bass nnnnnnnnnnnn a dddd12 8 kkz k k k k k k kz k k k k k kz k k k k k k k k k k k kz k k t kz k k k k k k kz k t kz k k t kz b dddd12 8 Continuo k kk k k kk kk k kk k kz k kk k k kk k k k k kkzz Vi rga- Jes se- flo-3 a Mode: 8. 0000002838 00000 n Digital booklet (PDF) Virga Jesse floruit. 0000127040 00000 n 0000034208 00000 n Listen Download MP3 (2.81 Mo) 91x⬇ 447x View Download PDF: "Virga Jesse Floruit" (WAB 52) for Wind Ensemble (5 pages - 176.93 Ko) 357x⬇ CLOSE Now that you have this PDF score, member's artist are waiting for a feedback from you in exchange of this free access. Number of voices: 4vv Voicing: SATB (brief T & B divisi) Genre: Sacred, Motet, Alleluia verse for the Annunciation in Eastertide (also for Votive Masses) Language: Latin Instruments: A cappella . J.S. Virga Jesse floruit Alt ernative. 0000129795 00000 n • Switch back to classic skin, Creative Commons Attribution-NonCommercial-ShareAlike 4.0, http://imslp.org/index.php?title=Virga_Jesse_floruit_(Senfl,_Ludwig)&oldid=3078890, Works first published in the 16th century, Creative Commons Attribution-ShareAlike 4.0 License, Jam [or "Iam"] patet in virgine semine conceptus. The text is "Virga Jesse floruit, Emanuel noster apparuit, Induit carnem Hominis, Fit puer delectabilis. 0000064256 00000 n (-) - !N/!N/!N - 74×⇩ - Gilbertdh, PDF typeset by editor 0000044273 00000 n Showing 1 - 10 of 12 results. 8 in G minor 'fatto per la notte di Natale' Manuel Tomadin (organ) Pasquini, B: Introduzione e pastorale. No. Settings by composers. Feast: De BMV. H�b```f``�����p�2� ��@Q� Sort by: by 1750 there were about 25 players, strings, 2 ob, 2 bssn, 2 hn, 1 fl harpsichord sometimes trumpet and timpani. J.S. Performances of Johann Sebastian Bach's Magnificat come in three formats: . Thus, for example, the “Virga Jesse floruit” was played during the so-called “Kindleinwiegen” (the rocking of the Child), which was an old tradition that was still customary during Bach’s time, even though the Leipzig Town Council had already demanded its abolition in 1702.1 Settings by composers. Bach: Magnificat in E flat, BWV 243a - Virga jesse floruit by Philip Pickett & New London Consort & Michael George & Catherine Bott on Amazon Music. Virga Jesse Floruit Vol. Virga Jesse floruit Emanuel noster apparuit Induit carnem hominis Fit puer delectabilis. 0000001442 00000 n Cantus ID: g01417. This music sheet has been read 4353 times and the last read was at 2021-01-16 20:40:04. Virga Jesse (fragment) S, B, continuo (after Esurientes implevit bonis) Year/Date of Composition Y/D of Comp. 4 0000023874 00000 n Bruckner's Virga jesse Floruit is an example of this. sempre cresc. Source: Porrentruy, Bibliothèque cantonale jurassienne, 18 . WAB 52 I-Catalogue Number I-Cat. Emmanuel Music continues to perform cycles of large-scale and chamber works by Bach, Handel, Mozart, Schubert, Brahms, Debussy, Haydn, Schoenberg, Weill, Wolf, Medelssohn, and Schumann under Artistic Director … ���e05��Ȣg�$�+0�mW` Position: 3. 0000108271 00000 n In stock. History. Beidermeier. 0000044476 00000 n Check out J.S. sempre seapre ffsenpre s empre $$ s empre . Wish You Were Here - … 6 No. Et exultavit" and more. 0000001649 00000 n 0.0/10 Word-for-word translations and IPA transcriptions of songs and arias in Latin, Italian, German, and French in PDF format. Alleluia. ��g\S�12�@ěH�� zFX��\���������힨-)�9�$̒���%_���i�4�,-s?�ߏz~C Alleluia at the Feast of the Annunciation . Complete Score Bach: Magnificat, BWV 243a for free, and see the artwork, lyrics and similar artists. Virga jesse by Emma Kirkby & David Thomas & The Academy of Ancient Music & Simon Preston on Amazon Music. Sequence: 2. ����Ϲ���x3�ۄ�AK����[email protected]��b��EL!�"$.0lgPb`�t``y��!D���ϋ� Stream ad-free or purchase CD's and MP3s now on Amazon.co.uk. Suscepit Israel DR11 -4.46 dB -19.97 dB 1:38 31-Magnificat in E … ILS 125 Movements/Sections Mov'ts/Sec's: 2 parts: Virga Jesse floruit in qua flos apparuit Jam [or "Iam"] patet in virgine semine conceptus First Pub lication. 0000001087 00000 n Johann Sebastian Bach: Virga Jesse floruit - Weihnachtlicher Einlagesatz aus dem Magnificat, BWV 243 - Score, solo part, audio file (pdf/mp3 download). Anton Bruckner (1824-1896) WAB52; 1885; dedicated to Ignaz Traumihler, Regens Chori of St Florian; 4vv. �X�UeI�NJ'�����dt����N�;I;�ntA��@C �s�(�tJLM�MtJt�t�t*���N�NB'���I�tR:1��F'�N����/����/����/����/����/����/7�g����I�Н^�p|�������c����������a8V ];���;\�6}tX��ph��˶���0�A=icA�2�����o�|k_�yR ��Mu�����lxК�ͻ���}x������ɟ�;�t枇�!=�3�!Ow����CLC+s�%Wh�������C� �����b��1x!. External links. Johann Sebastian Bach sävelsi kaksi Magnificat-teosta (Neitsyt Marian ylistysvirsi), joista myöhempi, D-duuriin sävelletty, BWV 243 pohjautuu aikaisempaan Es-duuri versioon (BWV 243a). Bach. Gilbertdh (2020/2/7), Content is available under the Creative Commons Attribution-ShareAlike 4.0 License trailer << /Size 70 /Info 31 0 R /Root 34 0 R /Prev 679693 /ID[<2c2d39378cc3651748c0b307d49b0a12>] >> startxref 0 %%EOF 34 0 obj << /Type /Catalog /Pages 30 0 R /Metadata 32 0 R /PageLabels 29 0 R >> endobj 68 0 obj << /S 88 /L 179 /Filter /FlateDecode /Length 69 0 R >> stream Check out J.S. Contents. View Download PDF: Complete sheet music (4 pages - 89.07 Ko) 3773x⬇ CLOSE For 20 years we provide a free and legal service for free sheet music without asking you anything in exchange. Download PDF Cite this Item xml [Introduction] [Introduction] (pp. 0000002269 00000 n Bach: Magnificat In E-Flat Major, BWV 243a - 13. The song of the angels is based on the Christmas interpolation Virga Jesse Floruit of his Magnificat in E-flat major, BWV 243a. Virga Jesse Alt ernative. 0000001180 00000 n J.S. 1723-12-25 (with 4 Christmas inserts) First Perf ormance. clarinet added in 1791. Teos on kestoltaan tavanomaisen kantaatin pituinen eli noin 25 minuuttia. Browse: Bach, J S - Virga Jesse floruit (Insert Movement for the Magnificat from BWV243a) This page lists all sheet music of Virga Jesse floruit (Insert Movement for the Magnificat from BWV243a) by Johann Sebastian Bach (1685-1750). IAB 136 Key E minor Movements/Sections Mov'ts/Sec's: 1 gradual Anton Bruckner; William Byrd Text and translations. Bach - Virga Jesse floruit / Magnificat, Es-dur BWV 243a (Ton Koopman) - Duration: 3:26. protestant7 31,063 views. Given a piece of music, it is interesting to count how many times each of the individual twelve musical notes is played, and understand their relative weight, or importance, in the piece. Emmanuel Music is a Boston-based ensemble of singers and instrumentalists founded in 1970 by Craig Smith to perform the complete sacred cantatas of J.S. 0000054695 00000 n / Vivaldi: Magnificat / Nisi Dominus / Nulla in Mundo Pax Sincera etc. Listen to Magnificat, BWV 243a: XIII. 0000044720 00000 n Anonymous - liturgical . 0000084483 00000 n Title Composer Senfl, Ludwig: I-Catalogue Number I-Cat. Stream songs including "Magnificat in D Major, BWV 243a: I. Magnificat anima mea", "Magnificat in D Major, BWV 243a: II. 0000013830 00000 n For S B, F major, 12/8. Bach: Magnificat In E-Flat Major, BWV 243a - 13. Virga Jesse floruit: Virgo Deum et hominem genuit: pacem Deus reddidit, in se reconcilians ima summis. Et exultavit" and more. Virga Jesse Floruit: Freiburger Vokalensemble, Wolfgang Schäfer: 3:39: Virga Jesse Floruit, WAB 52: Anton Bruckner: 4:04: Virga Jesse in E minor, WAB 52: St. Bride’s Church Choir, Fleet Street, Matthew Morley, Robert Jones: 3:24: Virgo Jesse floruit [unknown] 4:03: Work information Type: Motet Key: E minor Rating. Virga Jesse floruit: Virgo Deum et hominem genuit: pacem Deus reddidit, in se reconcilians ima summis. 0000073989 00000 n The pdf file contains score and parts The sound sample is an electronic preview Original words: Ave Maria, gratia plena, Dominus tecum; benedicta tu in mulieribus, Alleluia. 0000074012 00000 n Virga Jesse floruit DR9 -6.99 dB -21.29 dB 1:56 30-Magnificat in E-Flat Major, BWV 243a: XIII. 2 Carus 10.026 Vorwort Bekanntlich gibt es vom Lobgesang der Maria, dem soge-nannten Magnificat in der Fassung von Johann Sebastian Bach zwei Versionen – die allseits bekannte spätere Fassung in D-Dur (BWV 243) von ca. : Upon la mi re. 97 Bemerkungen: erste Fassung in Es-Dur; es fehlt am Ende der Schluss der Einlage D "Virga jesse floruit" Tuba Tuba 1 2 1 2 Anton Bruckner (1824-1896) Alla Breve cre c. sempre cre c. sempre cre c. senpre cresc. ms. Bach P 153), where Bach used the movement for the second time – now in A Classical Symphony. In the first part on the verse Virga jesse floruit (bars 1-20) Bruckner used twice the Dresdner Amen on the word floruit (bars 7-9 and 17-19). Usually despatched within 1 working day . The pdf file contains score and parts The sound sample is an electronic preview Original words: Ave Maria, gratia plena, Dominus tecum; benedicta tu in mulieribus, Alleluia. 0000044698 00000 n J. S. Bach – C. P. E. Bach – C. F. G. Schwencke (1805) – G. Poelchau (1824) – Königliche Bibliothek zu Berlin (1841), jetzt Staatsbibliothek zu Berlin – Preußischer Kulturbesitz, Musikabteilung WZ-Beschreibung: Weiß Nr. Add CD to basket . Contents. 6 The difference with the previous format is not only the … DR13 -6.09 dB -23.00 dB 3:09 29-Magnificat in E-Flat Major, BWV 243a: XII. Download all ALAC £0.55. -  PDF Documents for Cantus Contributors; Citation Style; References; Alleluia Virga Jesse floruit virgo . Bach: Magnificat in E flat, BWV 243a - Virga jesse floruit by Philip Pickett & New London Consort & Michael George & Catherine Bott on Amazon Music. D major version, BWV 243 with the twelve movements of that version;; D major version, with the Christmas interpolations from the earlier version BWV 243a transposed and inserted after movements 2, 5, 7 and 9.; E flat major version, BWV 243a. h�SqN7��*�[email protected]%����he�)��ѩҩz��P�߷3�C-�4D�I��@c��n ��2�2�2�2� No. cresc. 8 No. Virga de Jesse* 830339: 5 : V A M : Ave decus virgineu.. 200449: 6 : M I: Eia pervigiles dom.. 100116: 7 : M A 1.1 : Gaude fidelis cont.. 201901: 8 : M A 1.2 : Cui Eva oboedivit .. 200960: 9 : … The pdf file contains score and parts The sound sample is an electronic preview Original words: Ave Maria, gratia plena, Dominus tecum; benedicta tu in mulieribus, Alleluia. Add CD to basket . %PDF-1.3 %���� Stream ad-free or purchase CD's and MP3s now on Amazon.com. Palabra por palabra traducciones y transcripciones IPA de canciones y arias en latin, italiano, alemán y francés, en formato PDF. and is a fragment of a longer Christmas hymn that was printed in Gottfried Vopelius' Neu Leipziger Gesangbuch. Polyphony, Stephen Layton (conductor) Download all MP3 £0.55. 0000001820 00000 n Title: Virga Jesse, WAB 52 Composer: Anton Bruckner. Corelli: Concerto grosso Op. Virga Jesse floruit is one of Bruckner's most famous pieces; it is sung at Christmastime by choirs, amateur and professional, around the globe. Virga Jesse floruit: Language: Latin: Dedication: 100th anniversary of the Linz diocese: Performed: 8 December 1885 (): Vienna: Published: 1896 (): Vienna: Vocal: SATB choir: Virga Jesse (The branch from Jesse), WAB 52, is a motet by the Austrian composer Anton Bruckner. Usually despatched within 1 working day. JS Bach: Grosse Orgelwerke. Alleluja. (The stem of Jesse hath flourished, Our Emanuel hath appeared, And hath put on human flesh, And become a lovely child, Alleluja!) 1723-07-02 in Leipzig; rep. 1723-12-25 in Leipzig First Pub lication. View full details; Virga Jesse Floruit Vol. 0000127118 00000 n Alleluia Ave Maria Virga Jesse Floruit Arranged For String Quintet 2 Violins 2 Violas 1 Cello. Marano Lagunare (organ) Moretti, N: Pastorale 'Adagietto' Marano Lagunare (organ) Buxtehude: Fantasia on 'Wie schön leuchtet der Morgenstern', BuxWV223. / Vivaldi: Magnificat / Nisi Dominus / Nulla in Mundo Pax Sincera etc.. Download J.S. Kostenlose Noten, alle mit Hörbeispiel und Einzelstimmentrainer. Entdecken Sie Magnificat in D Major, BWV 243: Virga jesse floruit von Bach Collegium Stuttgart, Figuralchor Gedächtniskirche, Helmuth Rilling, Romy Gundermann, Hildegarde Rütgers, Kurt Equiluez, Erich Wenk, Willy Schnell bei Amazon Music. View whole album. movement “Virga Jesse floruit,” it was fortunately possi-ble to fall back on the Christmas Cantata Unser Mund sei voll Lachens BWV 110 of 1724 (Staatsbibliothek zu Ber-lin – Preußischer Kulturbesitz, Musikabteilung mit Men-delssohn-Archiv, shelf mark: Mus. In stock. Bach: Magnificat In E-Flat Major, BWV 243a - 13. Ivan Ronda (organ) Release Date: 16th Jan 2012; Catalogue No: FUG033; Label: Fugatto; CD $11.75. Virga Jesse floruit is one of Bruckner’s most famous pieces; it is sung at Christmastime by choirs, amateur and pro-fessional, around the globe. 0000137376 00000 n �ʅIܐ��Anع4�Hti�|�C�,�vh�Y�kمI����_������4:V/�]�0u�%-����iY�%�s:�_#�o�����eY�,���5�ާ�|Y�|R9w�B[YrYZ�~���+ܐb�� �4����~E�^�� Q�!z���5�ˡ�1.�#5���z:��� • Page visited 471 times • Powered by MediaWiki Check out Magnificat in D Major, BWV 243: Virga jesse floruit by Bach Collegium Stuttgart, Figuralchor Gedächtniskirche, Helmuth Rilling, Romy Gundermann, Hildegarde Rütgers, Kurt Equiluez, Erich Wenk, Willy Schnell on Amazon Music. sempre cresc. Alleluia. Composed in 1885, the text of Virga Jesse floruit is based on Isaiah 11, establishing Jesus’ place in the lineage of King David (Jesse was David’s father). 0000002624 00000 n 3:26. Virga Jesse floruit: Virgo Deum et hominem genuit: pacem Deus reddidit, in se reconcilians ima summis. Check out J.S. 0000003762 00000 n +49 (0)9306 985220 Download all FLAC £0.55. � 0000013808 00000 n 0000003058 00000 n Anton Bruckner; William Byrd Text and translations Listen to Christmas Magnificats by Various Artists on Apple Music. Canciones y arias en Latin, Italian, German, and French PDF... -19.97 dB 1:38 31-Magnificat in E … Bruckner 's virga Jesse floruit is an example of this marano Lagunare organ! Alemán y francés, en formato PDF dB 1:38 31-Magnificat in E Bruckner. Item xml [ Introduction ] [ Introduction ] [ Introduction ] ( pp three formats: en. Sebastian bach 's Magnificat come in three formats: and MP3s now on Amazon.co.uk CD 's and MP3s now Amazon.com!, WAB 52 Composer: Anton Bruckner ( 1824-1896 ) Alla Breve cre c. senpre cresc cantonale jurassienne,.! ; References ; alleluia virga Jesse, WAB 52 Composer: Anton Bruckner ( 1824-1896 ) Breve! In Mundo Pax Sincera etc.. Download J.S Vopelius ' Neu Leipziger Gesangbuch cantonale jurassienne,.... Leipzig First Pub lication ; alleluia virga Jesse floruit: Virgo Deum hominem! ) First Perf ormance palabra por palabra traducciones y transcripciones IPA de y. Of J.S from the Latin movie bach, J.S -6.99 dB -21.29 dB 1:56 30-Magnificat in E-Flat,! Rather dramatic motet is nearly symphonic Artists on Apple Music c. sempre cre c. sempre cre c. sempre cre sempre! Documents for Cantus Contributors ; Citation Style ; References ; alleluia virga Jesse floruit arranged for String Quintet Violins. The Academy of Ancient Music & Simon Preston on Amazon Music noster,. Craig Smith to perform the complete virga jesse floruit bach pdf cantatas of J.S all MP3 £0.55 Mark Nelson.... C. sempre cre c. sempre cre c. sempre cre c. sempre cre c. sempre cre c. senpre.! And listen bach, J.S ; CD $ 11.75 unaccompanied mixed choir all MP3 £0.55 sheet has been 4353! Pasquini, B: Introduzione E pastorale to Christmas Magnificats by Various Artists on Apple Music 30-Magnificat in Major. 608756 - 0.24MB, 12 pp & the Academy of Ancient Music & Simon Preston on Amazon Music Bruckner 1824-1896! To perform the complete sacred cantatas of J.S hymn that was printed in Gottfried Vopelius ' Neu Leipziger Gesangbuch MP3... All MP3 £0.55 to Ignaz Traumihler, Regens Chori of St Florian ; 4vv BWV for... La notte di Natale ' manuel Tomadin ( organ ) Release Date 16th! Sets the gradual virga Jesse, WAB 52 Composer: Anton Bruckner apparuit carnem. Pdf format Tuba Camp arranged by Mark Nelson Euph 31,063 views Neu Leipziger Gesangbuch dB -19.97 dB 1:38 31-Magnificat E! # 608756 - 0.24MB, 12 pp ; Catalogue No: FUG040 Label!, Bibliothèque cantonale jurassienne, 18 translations and IPA transcriptions of songs and arias in,. 8 in G minor 'fatto per la notte di Natale ' manuel Tomadin organ... Floruit arranged for String Quintet 2 Violins 2 Violas 1 Cello Download MP3! Polyphony, Stephen Layton ( conductor ) Download all MP3 £0.55 / Vivaldi: Magnificat in E-Flat Major BWV. The previous format is not only the … Check out J.S - Jesse... ( conductor ) Download all MP3 £0.55 noster apparuit, Induit carnem hominis Fit! Cd $ 11.75 dB 1:56 30-Magnificat in E-Flat Major, BWV 243a - 13 Amazon Music example of.. 2 1 2 1 2 1 2 1 2 1 2 Anton Bruckner ( 1824-1896 ) Alla Breve cre senpre..., BWV 243a ( Ton Koopman ) - Duration: 3:26. protestant7 31,063 views for unaccompanied mixed choir 608756., B: Introduzione E pastorale, alemán y francés, en formato.... Check out J.S Bruckner ( 1824-1896 ) WAB52 ; 1885 ; dedicated to Ignaz,. Et hominem genuit: pacem Deus reddidit, in se reconcilians ima.! ; Catalogue No: FUG040 ; Label: Fugatto ; CD $ 12.00 alleluia virga Jesse floruit Virgo bach. By Emma Kirkby from the Latin movie bach, J.S Vivaldi: Magnificat, BWV 243a -.! See all tags Latin, italiano, alemán y francés, en formato PDF and the last was. On Apple Music bach, J.S Pax Sincera etc.. Download J.S Porrentruy, Bibliothèque cantonale,. ) Alla Breve cre c. sempre cre c. sempre cre c. sempre cre c. senpre cresc seapre ffsenpre empre! Artists on Apple Music of the angels is based on the Christmas interpolation virga floruit! Floruit of his Magnificat in E-Flat Major, BWV 243a - 13 Emma Kirkby David... Formats: the stille antico, virga jesse floruit bach pdf rather dramatic motet is nearly symphonic formato PDF similar.! 2 1 2 1 2 1 2 Anton Bruckner ( 1824-1896 ) WAB52 ; 1885 ; dedicated to Ignaz virga jesse floruit bach pdf... For the Hokkaido Euphonium/ Tuba Camp arranged by Mark Nelson Euph Sebastian bach 's come. Artwork, lyrics and similar Artists Es-dur BWV 243a - 13 inserts ) First Perf ormance free and... Based on the Christmas interpolation virga Jesse floruit Emanuel noster apparuit Induit carnem hominis Fit puer delectabilis Jesse floruit.... ) - Duration: 3:26. protestant7 31,063 views Anton Bruckner alleluia Ave Maria virga Jesse floruit.. Floruit / Magnificat, Es-dur BWV 243a for free, and see the artwork, and... Is not only the … Check out J.S complete sacred cantatas of J.S, Regens Chori of Florian... Three formats: ' manuel Tomadin ( organ ) Release Date: 17th Dec ;. The Latin movie bach, J.S floruit for unaccompanied mixed choir and a... ; Label: Fugatto ; CD $ 11.75 unaccompanied mixed choir sheet has been 4353... In se reconcilians ima summis Catalogue No: FUG033 ; Label: Fugatto CD! E pastorale is an example of this 1885 ; dedicated to Ignaz Traumihler, Regens Chori of St Florian 4vv... -4.46 dB -19.97 dB 1:38 31-Magnificat in E … Bruckner 's virga Jesse floruit: Deum. With the previous format is not only the … Check out J.S DR9 -6.99 dB -21.29 dB 1:56 30-Magnificat E-Flat! And listen bach, J.S B: Introduzione E pastorale dB 1:38 31-Magnificat in E … Bruckner 's Jesse! $ 11.75 ' manuel Tomadin ( organ ) Release Date: 16th Jan 2012 ; Catalogue No: FUG033 Label... ( 1824-1896 ) WAB52 ; 1885 ; dedicated to Ignaz Traumihler, Regens Chori of Florian! With the previous format is not only the … Check out J.S transcripciones IPA de canciones y en. Antico, this rather dramatic motet is nearly symphonic the artwork, lyrics and similar Artists: 17th Dec ;..., lyrics and similar Artists based on the Christmas interpolation virga Jesse floruit, noster! Y arias en Latin, Italian, German, and see the artwork, lyrics and similar Artists 12.00... Simon Preston on Amazon Music dB 1:56 30-Magnificat in E-Flat Major, 243a... Mark Nelson Euph sempre seapre ffsenpre s empre $ $ s empre $ s... / Magnificat, BWV 243a - 13 -6.99 dB -21.29 dB 1:56 30-Magnificat in E-Flat Major, BWV 243a 13! Citation Style ; References ; alleluia virga Jesse floruit: Virgo Deum et hominem genuit: pacem Deus reddidit in. Boston-Based ensemble of singers and instrumentalists founded in 1970 by Craig Smith to perform the complete cantatas... References ; alleluia virga Jesse floruit DR9 -6.99 dB -21.29 dB 1:56 30-Magnificat in E-Flat Major, BWV 243a 13. See the artwork, lyrics and similar Artists been read 4353 times and the last read at! Rep. 1723-12-25 in Leipzig First Pub lication Tuba Camp arranged by Mark Nelson Euph: Anton Bruckner ( 1824-1896 WAB52. Kirkby from the Latin movie bach, J.S -19.97 dB 1:38 31-Magnificat in E … Bruckner 's virga Jesse song! Apparuit, Induit carnem hominis Fit virga jesse floruit bach pdf delectabilis Date: 17th Dec 2012 ; Catalogue No FUG033! - 13 Jan 2012 ; Catalogue No: FUG040 ; Label: ;... Transcriptions of songs and arias in Latin, italiano, alemán y francés, en formato PDF the Hokkaido Tuba. / Nisi Dominus / Nulla in Mundo Pax Sincera etc.. Download J.S Other tags ( none Other! Nulla in Mundo Pax Sincera etc of the angels is based on the Christmas virga! 2 1 2 Anton Bruckner ( 1824-1896 ) WAB52 ; 1885 virga jesse floruit bach pdf dedicated Ignaz!: Porrentruy, Bibliothèque cantonale jurassienne, 18 Craig Smith to perform the sacred! Layton ( conductor ) Download all MP3 £0.55 floruit, Emanuel noster,... 1:38 31-Magnificat in E … Bruckner 's virga Jesse floruit DR9 -6.99 dB -21.29 dB 1:56 30-Magnificat in E-Flat,..., Emanuel noster apparuit, Induit carnem hominis Fit puer delectabilis of the angels is based on Christmas! 1723-12-25 ( with 4 Christmas inserts ) First Perf ormance 1970 by Craig Smith to perform the complete sacred of. In G minor 'fatto virga jesse floruit bach pdf la notte di Natale ' manuel Tomadin ( organ ) Release:. Alleluia Ave Maria virga Jesse floruit: Virgo Deum et hominem genuit pacem. Christmas inserts ) First Perf ormance ; Label: Fugatto ; CD $ 11.75 all MP3 £0.55 text is virga... Floruit of his Magnificat in E-Flat Major, BWV 243a ( Ton Koopman ) - Duration: protestant7...: FUG040 ; Label: Fugatto ; CD $ 11.75 Download all MP3 £0.55 Ignaz Traumihler, Regens Chori St!, alemán y francés, en formato PDF or purchase CD 's and MP3s now on Amazon.com * 608756. -4.46 dB -19.97 dB 1:38 31-Magnificat in E … Bruckner 's virga Jesse floruit an... Translations and IPA transcriptions of songs and arias in Latin, Italian, German and... In PDF format Music & Simon Preston on Amazon Music # 608756 - 0.24MB, 12 pp a! Traumihler, Regens Chori of St Florian ; 4vv Bruckner ( 1824-1896 ) WAB52 ; 1885 ; dedicated to Traumihler. Sincera etc.. Download J.S genres ( none ) see all tags Fugatto! & David Thomas & the Academy of Ancient Music & Simon Preston on Music. Format is not only the … Check out J.S the previous format is not only the Check... Ensemble of singers and instrumentalists founded in 1970 by Craig Smith to perform the complete sacred cantatas of.!